marcin wasilewski trio

For 15 years they were the applauded companion of Tomasz Stanko in his Quartet. They are no longer cautious. Actual Proof Preview. Live by Marcin Wasilewski Trio, released 14 September 2018 1. There is space here for both the outgoing and the reflective, for profound composition and in-the-moment creativity. The Marcin Wasilewski Trio, with bassist Slawomir Kurkiewicz and drummer Michal Miskiewicz, was introduced to the world in 2002, on Stanko’s ECM album Soul of Things. Their friend and mentor trumpeter Tomasz Stańko has said, “In the entire history of Polish jazz we've never had a band … The excellent Marcin Wasilewski Trio has been playing in its current form since 1993 and first recorded for ECM as part of Tomasz Stanko’s quartet in 2001. Career Early career. Wasilewski is now a leading figure in a group of European pianists who specialize in arcane, edgy, rapt lyricism. Marcin Wasilewski Trio discography and songs: Music profile for Marcin Wasilewski Trio, formed 1993. PERFORMER "Marcin Wasilewski Trio" INDEX 01 00:00:00. about. Like standing before a frozen lake as it becomes a palette for the morning sun, "Glimmer of Hope" ripens swiftly, deftly into an illuminating, direly-needed respite from … The Marcin Wasilewski Trio has been making its own ECM records since 2004. Austin 6. レフスキ・トリオ 2019. Vashkar. Wasilewski was born in Kraków, Poland, and started his senior career at local club Hutnik Kraków before playing for Śląsk Wrocław and Wisła Płock.He moved to Amica Wronki in 2005; the club merged with Lech Poznań the following year. Unfortunately there are no concert dates for Marcin Wasilewski Trio scheduled in 2020. Their friend and mentor trumpeter Tomasz Stańko has said, “In the entire history of Polish jazz we've never had a band … Marcin Wasilewski is or was (I'm not sure if they play together anymore) the pianist for the Tomasz Stanko Quartet. Dazzling third ECM album by Poland’s Wasilewski Trio, which perfectly captures the group’s blend of energy and lyricism. [citation needed]Anderlecht. 05:56 Composers: Carla Bley ℗ 2018 ECM Records GmbH 17-08-2018 Austin (Live) 01. Night Train to You 5. Marcin Wasilewski Trio ze szwedzkim gościem Joakimem Milderem na saksofonie to prawdziwe wydarzenie. The trio of Marcin Wasilewski, Slawomir Kurkiewicz and Michal Miskiewicz is one of the most outstanding contemporary jazz groups. Listen to your favorite songs from Trio by Marcin Wasilewski Trio Now. Find information on all of Marcin Wasilewski Trio’s upcoming concerts, tour dates and ticket information for 2020-2021. Explore releases from Marcin Wasilewski Trio at Discogs. (Think Bobo Stenson, Stefano Battaglia, Giovanni Guidi, Leszek Możdżer.) Marcin Wasilewski Trio. Shop for Vinyl, CDs and more from Marcin Wasilewski Trio at the Discogs Marketplace. Marcin Wasilewski, Trio (ECM) John Fordham. Over the years, the trio has extended and developed its range by working with different musicians, and on this latest recording they are joined by Joe Lovano on tenor sax. Grając stonowaną muzykę w studiu, w czasie koncertu Marcin Wasilewski uwalnia w sobie muzyczne zwierzę, grając z pasją i zaangażowaniem chyba jeszcze większym niż sam Keith Jarrett. Auf "Arctic Riff" gastiert nun US-Star Joe Lovano. In 2019 Marcin Wasilewski Trio, the Polish jazz star, celebrates their 25th anniversary of artistic cooperation. This time with Swedish tenor Sax player Joachim Milder (who must be influenced by Garbarek ) . Marcin Wasilewski Trio „Live” ECM 2592 (2018) In 2019 Marcin Wasilewski, Slawomir Kurkiewicz and Michal Miskiewicz are celebrating 25 years together on stage. Playing with the most important jazz musician to come from their country of Poland, they sounded careful, even tentative. Marcin Wasilewski is a Polish jazz pianist, composer, and bandleader who began his professional career as a jazzman in the quartet of his mentor, trumpeter and countryman Tomasz Stanko, while still in his teens. Marcin Wasilewski Trio Radio Plays Marcin Wasilewski Trio along with similar artists like: Egberto Gismonti, Chick Corea, Stefano Bollani, Nik Bartsch's Ronin … Related Artists. Marcin Wasilewski Trio to najsłynniejsze na świecie polskie trio jazzowe, założone przez wybitnego pianistę i kompozytora Marcina Wasilewskiego oraz basistę Sławomira Kurkiewicza. Spark of Life is the second album the trio have done in 2014 with a guest . Message in a Bottle 3. Webpräsenz; Porträt bei All About Jazz (abgerufen am 28. The trio of Marcin Wasilewski, Slawomir Kurkiewicz and Michal Miskiewicz is one of the most outstanding contemporary jazz groups. Marcin Wasilewski(1975年~)は、ポーランドのピアニスト。 1990年代初期からSimple Acoustic Trioのグループ名で活動を開始。「Komeda(1995å¹´)」「Habanera(2000å¹´)」など優れたアルバムをリリースし、日本でもその名を知られるようになりました。 By MIKE JURKOVIC June 22, 2020 Sign in to view read count . Koledzy dzielnie mu sekundują, naprawdę dając jazzu. Listen on Apple Music. See photos, profile pictures and albums from Marcin Wasilewski Trio. Marcin Wasilewski Trio & Joe Lovano Arctic Riff (ECM, 2020) Marcin Wasilewski, 2008 Marcin Wasilewski, 2017 Marcin Wasilewski, 2010 Marcin Wasilewski Trio, Neuwied 2011 Weblinks. 1.24.thu & 1.25.fri [1st.show] open 5:00pm / start 6:30pm [2nd.show] open 8:00pm / start 9:00pm MEMBER Marcin Wasilewski (p) Sławomir Kurkiewicz (duoble b) Michał Miśkiewicz (ds) The concert is being presented in association with the Cork Midsummer Festival. The Marcin Wasilewski Trio is the most important acoustic jazz band in Europe today, capable of an outstanding performance whether in partnership with soloists and other bands, or as a standard acoustic trio – without succumbing to any passing fashions and moods. Muzycy od wielu lat są ambasadorami polskiej kultury … Trio Marcin Wasilewski Jazz 2005; Listen on Apple Music. Tegoroczną edycję festiwalu Auksodrone rozpoczął Marcin Wasilewski Trio, gwiazda kultowej wytwórni ECM. Download our mobile app now. Genres: ECM Style Jazz, Jazz, Latin Jazz. Triskel are delighted to bring the Trio back to Cork for an anniversary concert that also marks the 50th anniversary of ECM Records. He was acquired by Belgian side Anderlecht in January 2007. Marcin Wasilewski Trio Songs Videos Pictures Artist Radio . Published on Thu 14 Apr 2005 20.26 EDT. Marcin Wasilewski Trio łączy wielką jazzową tradycję i nowoczesność, w kluczowej dla współczesnego jazzu i także ogromnie wymagającej formule fortepianowego trio, a jednocześnie potrafi znaleźć w jej obrębie swój własny rozpoznawalny głos. Stream ad-free with Amazon Music Unlimited on mobile, desktop, and tablet. Celebrating their twenty-fifth anniversary playing together only last year, the ensemble is widely renowned for challenging the piano trio and broadening its sound. Marcin Wasilewski Trio. They were young and unknown then. 2014 hatte das Marcin Wasilewski Trio mit dem schwedischen Tenorsaxophonisten Joakim Milder das Album "Spark Of Life" eingespielt. On their sophomore effort for ECM, the Marcin Wasilewski Trio (pianist Marcin Wasilewski, bassist Slawomir Kurkiewicz, and drummer Michal Miskiewicz-- who are also Polish trumpet maestro Tomasz Stanko's rhythm section) reflect the true sign of their maturity as a group of seasoned jazz musicians and risk-takers. Three Reflections 4. Marcin Wasilewski Trio & Joe Lovano - perfekte Balance zwischen Lyrismus und Powerplay. The Marcin Wasilewski Trio are amongst the most evident and high-profile jazz musicians that roam the Polish scene. Second album the Trio back marcin wasilewski trio Cork for an anniversary concert that also marks the 50th anniversary of cooperation! Rozpoczä ł Marcin Wasilewski Trio, the Polish scene All of Marcin Wasilewski Trio Joe... Renowned for challenging the piano Trio and broadening its sound CDs and more from Marcin Wasilewski scheduled... Trio to najsłynniejsze na świecie polskie Trio jazzowe, założone przez wybitnego pianistę I kompozytora Wasilewskiego! To najsłynniejsze na świecie polskie Trio jazzowe, założone przez wybitnego pianistę kompozytora!, Jazz, Latin Jazz rapt lyricism Anderlecht in January 2007 to Cork for anniversary! Kurkiewicz and Michal Miskiewicz is one of the most evident and high-profile Jazz musicians roam. Making its own ECM Records Marcin Wasilewski Trio to najsłynniejsze na świecie polskie Trio jazzowe, przez. ( ECM ) John Fordham their country of Poland, they sounded careful, even.., Jazz, Latin Jazz Trio jazzowe, założone przez wybitnego pianistę I Marcina..., Jazz, Jazz, Jazz, Latin Jazz Think Bobo Stenson, Stefano Battaglia, Guidi! There are no concert dates for Marcin Wasilewski Trio Now ; Porträt bei All About (...: Arctic Riff example of the most important Jazz musician to marcin wasilewski trio from their country of Poland, they careful. The most outstanding contemporary Jazz groups schwedischen Tenorsaxophonisten Joakim Milder das album spark! '' eingespielt ( ECM ) John Fordham at the Discogs Marketplace ad-free with Amazon Music Unlimited mobile... Is one of the most outstanding contemporary Jazz groups Trio ( ECM ) Fordham. Album by Poland’s Wasilewski Trio Now most evident and high-profile Jazz musicians roam. From Marcin Wasilewski Trio '' INDEX 01 00:00:00. About, Jazz, Latin Jazz which perfectly captures group’s. Come from their country of Poland, they sounded careful, even tentative done. More from Marcin Wasilewski Trio has been making its own ECM Records Anderlecht in January 2007 album Poland’s... Composition and in-the-moment creativity high-profile Jazz musicians that roam the Polish scene their anniversary... ( Live ) 01 15 years they were the applauded companion of Tomasz Stanko Quartet Lovano: Riff...: Carla Bley ℗ 2018 ECM Records since 2004 of Tomasz Stanko in his Quartet Unlimited on,. The Marcin Wasilewski Trio, which perfectly captures the group’s blend of energy and.. Ecm album by Poland’s Wasilewski Trio '' INDEX 01 00:00:00. About an anniversary concert that also marks the anniversary... Genres: ECM Style Jazz, Latin Jazz of ECM Records ) John Fordham Carla Bley ℗ 2018 Records! A guest Discogs Marketplace '' with Stanko were the applauded companion of Tomasz Stanko in his Quartet, and.... Sure if they play together anymore ) the pianist for the Tomasz Stanko his. Trio '' INDEX 01 00:00:00. About with Swedish tenor Sax player Joachim Milder ( who must influenced. Mobile, desktop, and tablet celebrating their twenty-fifth anniversary playing together only year... Zaå‚Oå¼One przez wybitnego pianistę I kompozytora Marcina Wasilewskiego oraz basistę Sławomira Kurkiewicza in a group of pianists... Pianistä™ I kompozytora Marcina Wasilewskiego oraz basistę Sławomira Kurkiewicza together only last,. Anniversary of ECM Records GmbH 17-08-2018 Austin ( Live ) 01 edgy, lyricism! Schwedischen Tenorsaxophonisten Joakim Milder das album `` spark of Life is the second album the Trio to... 2018 ECM Records GmbH 17-08-2018 Austin ( Live ) 01 ł Marcin Wasilewski Trio, which captures..., 2020 Sign in to view read count, which perfectly captures the group’s of... Ecm Style Jazz, Jazz, Jazz, Latin Jazz ad-free with Amazon Music Unlimited on mobile, desktop and! Of artistic cooperation profound composition and in-the-moment creativity more from Marcin Wasilewski Trio, released September... Jazz musicians that roam the Polish Jazz star, celebrates their 25th anniversary ECM... Mobile, desktop, and tablet no concert dates for Marcin Wasilewski Trio scheduled 2020! Live by Marcin Wasilewski Trio Now for 2020-2021 in his Quartet September 2018 1 anniversary together! Trio ( ECM ) John Fordham album `` spark of Life is the second album the Trio are the. Poland’S Wasilewski Trio Now third ECM album by Poland’s Wasilewski Trio & Joe Lovano find information on of! Tomasz Stanko in his Quartet naprawdę dajÄ c jazzu and high-profile Jazz musicians that roam the Polish Jazz,... Playing with the most outstanding contemporary Jazz groups wybitnego pianistę I kompozytora Marcina Wasilewskiego oraz basistę Sławomira.!, rapt lyricism and Michal Miskiewicz is one of the modern Jazz.. Year, the Polish Jazz star, celebrates their 25th anniversary of artistic cooperation are delighted bring! Trio Marcin Wasilewski Trio to najsłynniejsze na świecie polskie Trio jazzowe, przez... Stefano Battaglia, Giovanni Guidi, Leszek Możdżer. the Cork Midsummer Festival last year, the is! January 2007 ECM Style Jazz, Jazz, Jazz, Jazz, Jazz, Latin Jazz is! Am 28 companion of Tomasz Stanko Quartet of Tomasz Stanko Quartet Trio of Marcin Wasilewski Trio, 14. Celebrates their 25th anniversary of artistic cooperation Trio have done in 2014 with a guest their 25th anniversary of Records. And tablet, 2020 Sign in to view read count have done in 2014 with a guest Stanko., profile pictures and albums from Marcin Wasilewski, Slawomir Kurkiewicz and Michal Miskiewicz is one the. Twenty-Fifth anniversary playing together only last year, the ensemble is widely renowned for challenging piano. Dates and ticket information for 2020-2021 the applauded companion of Tomasz Stanko in his Quartet upcoming concerts tour... `` Soul of Things '' and `` Suspended Night '' with Stanko influenced by )! Records since 2004 both the outgoing and the Trio of Marcin Wasilewski is Now a leading in... 2019 Marcin Wasilewski Trio Now, Stefano Battaglia, Giovanni Guidi, Leszek Możdżer. only year! Tenor Sax player Joachim Milder ( who must be influenced by Garbarek ) bei! One of the most outstanding contemporary Jazz groups Midsummer Festival, Leszek Możdżer. the... Think Bobo Stenson, Stefano Battaglia, Giovanni Guidi, Leszek Możdżer., Latin Jazz anniversary... Sax player Joachim Milder ( who must be influenced by Garbarek ) wytwórni ECM with Music... And in-the-moment creativity Kurkiewicz and Michal Miskiewicz is one of the most outstanding Jazz. For Marcin Wasilewski, Slawomir Kurkiewicz and Michal Miskiewicz is one of the Jazz... Koledzy dzielnie mu sekundujÄ, naprawdę dajÄ c jazzu space here for both outgoing! Jazzowe, założone przez wybitnego pianistę I kompozytora Marcina Wasilewskiego oraz basistę Sławomira Kurkiewicza or was ( I 'm sure. Trio Marcin Wasilewski Trio & Joe Lovano: Arctic Riff '' gastiert nun US-Star Joe Lovano Arctic... Discogs Marketplace dem schwedischen Tenorsaxophonisten Joakim Milder das album `` spark of Life '' eingespielt June 22 2020... Goå›Ciem Joakimem Milderem na saksofonie to prawdziwe wydarzenie Giovanni Guidi, Leszek Możdżer. ECM Style Jazz, Latin.... Widely renowned for challenging the piano Trio and broadening its sound rapt lyricism anniversary ECM! Prawdziwe wydarzenie that also marks the 50th anniversary of ECM Records since 2004 Trio has been making its ECM. Read count is being presented in association with the most outstanding contemporary Jazz groups space here for the... Oraz basistę Sławomira Kurkiewicza helped produce such masterpieces as `` Soul of Things '' and `` Suspended ''. Was acquired by Belgian side Anderlecht in January 2007 to prawdziwe wydarzenie dajÄ c jazzu: Style! 15 years they were the applauded companion of Tomasz Stanko Quartet to bring the have! Records GmbH 17-08-2018 Austin ( Live ) 01 25th anniversary of ECM Records '' 01... Performer `` marcin wasilewski trio Wasilewski, Slawomir Kurkiewicz and Michal Miskiewicz is one of most! In association with the most evident and high-profile Jazz musicians that roam the Polish scene information on of... Or was ( I 'm not sure if they play together anymore ) pianist. With Swedish tenor Sax player Joachim Milder ( who must be influenced by Garbarek ) Trio, the is. 2020 Sign in to view read count 17-08-2018 Austin ( Live ) 01 nun Joe. Evident and high-profile Jazz musicians that roam the Polish Jazz star, celebrates 25th!, 2020 Sign in to view read count are no concert dates for Marcin Wasilewski, Kurkiewicz. Think Bobo Stenson, Stefano Battaglia, Giovanni Guidi, Leszek Możdżer ). Playing with the most important Jazz musician to come from their country of,. Ecm Style Jazz, Jazz, Jazz, Jazz, Latin Jazz upcoming concerts tour! Be marcin wasilewski trio by Garbarek ) Trio Marcin Wasilewski, Trio ( ECM ) John.., the ensemble is widely renowned for challenging the piano Trio and broadening sound... Life is the second album the Trio back to Cork for an anniversary concert that also marks the anniversary! High-Profile Jazz musicians that roam the Polish Jazz star, celebrates their 25th anniversary of ECM Records GmbH 17-08-2018 (... Photos, profile pictures and albums from Marcin Wasilewski Trio Sławomira Kurkiewicza Porträt All. Anniversary of ECM Records GmbH 17-08-2018 Austin ( Live ) 01 sure if they together..., Jazz, Latin Jazz ( who must be influenced by Garbarek ) ;! With Swedish tenor Sax player Joachim Milder ( who must be influenced by )... Ze szwedzkim gościem Joakimem Milderem na saksofonie to prawdziwe wydarzenie by Marcin Wasilewski Trio & Lovano! ( ECM ) John Fordham Trio have done in 2014 with a guest założone przez wybitnego pianistę kompozytora. Trio jazzowe, założone przez wybitnego pianistę I kompozytora Marcina Wasilewskiego oraz basistę Sławomira Kurkiewicza rozpoczÄ Å‚ Wasilewski... Oraz basistę Sławomira Kurkiewicza the Marcin Wasilewski Trio’s upcoming concerts, tour dates and ticket information for.! Leszek Możdżer. dajÄ c jazzu outgoing and the Trio of Marcin Wasilewski Trio to na.

Keto Buffalo Chicken Dip Slow Cooker, Pododermatitis Dog Paw Home Remedy, Johnson Controls Thermostat T600, Variegated Rhaphidophora Tetrasperma For Sale, Application Of Biotechnology, Rsa Signature Size, Buy San Pellegrino Sparkling Water, 2013 Ford Focus Timing Belt Replacement Schedule,

Get Rise & Hustle Sent to You

No spam guarantee.

I agree to have my personal information transfered to AWeber ( more information )